Login
Username:
Password:
[Signup]
[Recover Account]


Browse Torrents

Poll


You must be logged in to view polls



Latest Torrents
Sticky Password Pr...
- [Size: 40.84 MB]

ScreenHunter Pro 7...
- [Size: 123.50 MB]

Revo Uninstaller P...
- [Size: 16.09 MB]

Remote Desktop Man...
- [Size: 493.57 kB]

Quicken WillMaker ...
- [Size: 48.74 MB]


Torrent Details For "The.Pastor.and.The.Pro.2018.720p.AMZN.WEBRip.DDP2.0.x264-CM"

The.Pastor.and.The.Pro.2018.720p.AMZN.WEBRip.DDP2.0.x264-CM

Download this torrent | Magnet Download
Health:
Seeds: 43
Leechers: 39
Completed: 348 
Last Checked: 09-11-2018 14:19:29
External Torrent
Update Stats



Images Host

Poster


iMDB
Title: The Pastor and the Pro
Year: 2018
Runtime: 80 minutes
Language: English
Director: Matthew Wilson
Writing By: Matthew Wilson,
Produced By: Matthew Wilson,
Cast:
Kelly Cunningham as Rachel
Travis Lincoln Cox as Jacob
Jeffrey Arrington as Phil
Andrew Tribolini as Dr. Callahan
Phillip Keiman as Pastor Campbell
Bryar Freed-Golden as Mrs. Jenkins
Monika Holm as Leah


Watch-Free-HD     Download

Details
Name:The.Pastor.and.The.Pro.2018.720p.AMZN.WEBRip.DDP2.0.x264-CM
Description:
Video
ID : 1
Format : AVC
Format/Info : Advanced Video Codec
Format profile : [email protected]
Format settings : CABAC / 5 Ref Frames
Format settings, CABAC : Yes
Format settings, ReFrames : 5 frames
Codec ID : V_MPEG4/ISO/AVC
Duration : 1 h 17 min
Bit rate : 1 516 kb/s
Width : 1 280 pixels
Height : 720 pixels
Display aspect ratio : 16:9
Frame rate mode : Constant
Frame rate : 23.976 (24000/1001) FPS
Color space : YUV
Chroma subsampling : 4:2:0
Bit depth : 8 bits
Scan type : Progressive
Bits/(Pixel*Frame) : 0.069
Stream size : 846 MiB (87%)
Default : Yes
Forced : No
Color range : Limited
Color primaries : BT.709
Transfer characteristics : BT.709
Matrix coefficients : BT.709

Audio
ID : 2
Format : E-AC-3
Format/Info : Enhanced AC-3
Commercial name : Dolby Digital Plus
Codec ID : A_EAC3
Duration : 1 h 17 min
Bit rate mode : Constant
Bit rate : 224 kb/s
Channel(s) : 2 channels
Channel layout : L R
Sampling rate : 48.0 kHz
Frame rate : 31.250 FPS (1536 SPF)
Compression mode : Lossy
Stream size : 125 MiB (13%)
Title : English
Language : English
Service kind : Complete Main
Default : Yes
Forced : No


 http://imagecurl.com/viewer.p...0829398121511313.png


 http://imagecurl.com/viewer.p...6501996187956674.png

 http://imagecurl.com/viewer.p...0823995.png[/center]
Category:Movies > WEB-HD
Lang:English  English
Total Size:971.54 MB
Info Hash:2966b62868b7c9ff42b7c17a903da713673fa863
Added By:Scene
Date Added:09-11-2018 11:07:51
Downloads:24

Ratings:Not Yet Rated (Log in to rate it)


Tracker:
http://tracker.trackerfix.com:80/announce


File List: 


Comments

No comments still posted

Top
Copyright 2018 DownloadHD -|- Page Generated In 0.301737 secs.
-|- RSS Feed -|- Feed Info