Login
Username:
Password:
[Signup]
[Recover Account]


Browse Torrents

Poll


You must be logged in to view polls



Latest Torrents
Jimmy.Fallon.2018....
- [Size: 1.18 GB]

SEAL.Team.S02E10.1...
- [Size: 3.39 GB]

Wondershare Video ...
- [Size: 109.36 MB]

Wondershare PDFele...
- [Size: 72.41 MB]

Wise Care 365 Pro ...
- [Size: 10.25 MB]


Torrent Details For "The.Pastor.and.The.Pro.2018.1080p.AMZN.WEBRip.DDP2.0.x264-CM"

The.Pastor.and.The.Pro.2018.1080p.AMZN.WEBRip.DDP2.0.x264-CM

Download this torrent | Magnet Download
Health:
Seeds: 65
Leechers: 47
Completed: 311 
Last Checked: 09-11-2018 14:20:15
External Torrent
Update Stats



Images Host

Poster


iMDB
Title: The Pastor and the Pro
Year: 2018
Runtime: 80 minutes
Language: English
Director: Matthew Wilson
Writing By: Matthew Wilson,
Produced By: Matthew Wilson,
Cast:
Kelly Cunningham as Rachel
Travis Lincoln Cox as Jacob
Jeffrey Arrington as Phil
Andrew Tribolini as Dr. Callahan
Phillip Keiman as Pastor Campbell
Bryar Freed-Golden as Mrs. Jenkins
Monika Holm as Leah


Watch-Free-HD     Download

Details
Name:The.Pastor.and.The.Pro.2018.1080p.AMZN.WEBRip.DDP2.0.x264-CM
Description:

Video
ID : 1
Format : AVC
Format/Info : Advanced Video Codec
Format profile : [email protected]
Format settings : CABAC / 4 Ref Frames
Format settings, CABAC : Yes
Format settings, ReFrames : 4 frames
Codec ID : V_MPEG4/ISO/AVC
Duration : 1 h 17 min
Bit rate : 4 271 kb/s
Width : 1 920 pixels
Height : 1 080 pixels
Display aspect ratio : 16:9
Frame rate mode : Constant
Frame rate : 23.976 (24000/1001) FPS
Color space : YUV
Chroma subsampling : 4:2:0
Bit depth : 8 bits
Scan type : Progressive
Bits/(Pixel*Frame) : 0.086
Stream size : 2.33 GiB (95%)
Default : Yes
Forced : No
Color range : Limited
Color primaries : BT.709
Transfer characteristics : BT.709
Matrix coefficients : BT.709

Audio
ID : 2
Format : E-AC-3
Format/Info : Enhanced AC-3
Commercial name : Dolby Digital Plus
Codec ID : A_EAC3
Duration : 1 h 17 min
Bit rate mode : Constant
Bit rate : 224 kb/s
Channel(s) : 2 channels
Channel layout : L R
Sampling rate : 48.0 kHz
Frame rate : 31.250 FPS (1536 SPF)
Compression mode : Lossy
Stream size : 125 MiB (5%)
Title : English
Language : English
Service kind : Complete Main
Default : Yes
Forced : No



 http://imagecurl.com/viewer.p...5773239872542748.png

 http://imagecurl.com/viewer.p...4192994112912698.png


 http://imagecurl.com/viewer.p...4920264.png[/center]
Category:Movies > WEB-HD
Lang:English  English
Total Size:2.45 GB
Info Hash:d89562a670144b9fedeea192b858ec9812e8b835
Added By:Scene
Date Added:09-11-2018 10:48:37
Downloads:24

Ratings:Not Yet Rated (Log in to rate it)


Tracker:
http://tracker.trackerfix.com:80/announce


File List: 


Comments

No comments still posted

Top
Copyright 2018 DownloadHD -|- Page Generated In 0.311222 secs.
-|- RSS Feed -|- Feed Info