Login
Username:
Password:
[Signup]
[Recover Account]


Browse Torrents

Poll


You must be logged in to view polls



Latest Torrents
All.American.2018....
- [Size: 1.00 GB]

All.American.2018....
- [Size: 1.00 GB]

Jimmy.Fallon.2018....
- [Size: 1.18 GB]

SEAL.Team.S02E10.1...
- [Size: 3.39 GB]

Wondershare Video ...
- [Size: 109.36 MB]


Torrent Details For "May.It.Last.A.Portrait.of.the.Avett.Brothers.2017.720p.AMZN.WEBRip.DDP5.1.x264-NTb"

May.It.Last.A.Portrait.of.the.Avett.Brothers.2017.720p.AMZN.WEBRip.DDP5.1.x264-NTb

Download this torrent | Magnet Download
Health:
Seeds: 22
Leechers: 12
Completed: 208 
Last Checked: 09-11-2018 09:15:50
External Torrent
Update Stats



Images Host

Poster


iMDB
Title: May It Last: A Portrait of the Avett Brothers
Year: 2017
Runtime: 104 minutes
Votes: 409
Rating: 8.6/10
Language: English
Tagline: A story of life in harmony.
Director: Judd Apatow
Michael Bonfiglio

Produced By: Judd Apatow,Michael Bonfiglio,Joshua Church,Sam Fishell,Elizabeth Garrett,Amanda Glaze,Jon Kamen,Michael Lewen,Dave O'Connor,Cat Oppenheimer,Emily Q. Osborne,Justin Wilkes,
Cast:
The Avett Brothers as Themselves
Scott Avett as Himself
Seth Avett as Himself
Jennifer Carpenter as Herself
Bob Crawford as Himself
Paul DeFiglia as Himself
Tania Elizabeth as Herself
Joe Kwon as Himself
Mike Marsh as Himself
Rick Rubin as Himself
Trailers:
May It Last: A Portrait of The Avett Brothers - Official Trailer


Watch-Free-HD     Download

Details
Name:May.It.Last.A.Portrait.of.the.Avett.Brothers.2017.720p.AMZN.WEBRip.DDP5.1.x264-NTb
Description:
Video
ID : 1
Format : AVC
Format/Info : Advanced Video Codec
Format profile : [email protected]
Format settings : CABAC / 5 Ref Frames
Format settings, CABAC : Yes
Format settings, ReFrames : 5 frames
Codec ID : V_MPEG4/ISO/AVC
Duration : 1 h 43 min
Bit rate mode : Variable
Bit rate : 3 900 kb/s
Maximum bit rate : 4 500 kb/s
Width : 1 280 pixels
Height : 720 pixels
Display aspect ratio : 16:9
Frame rate mode : Constant
Frame rate : 23.976 (24000/1001) FPS
Color space : YUV
Chroma subsampling : 4:2:0
Bit depth : 8 bits
Scan type : Progressive
Bits/(Pixel*Frame) : 0.176
Stream size : 2.83 GiB (86%)
Default : Yes
Forced : No
Color range : Limited
Color primaries : BT.709
Transfer characteristics : BT.709
Matrix coefficients : BT.709

Audio
ID : 2
Format : E-AC-3
Format/Info : Enhanced AC-3
Commercial name : Dolby Digital Plus
Codec ID : A_EAC3
Duration : 1 h 43 min
Bit rate mode : Constant
Bit rate : 640 kb/s
Channel(s) : 6 channels
Channel layout : L R C LFE Ls Rs
Sampling rate : 48.0 kHz
Frame rate : 31.250 FPS (1536 SPF)
Compression mode : Lossy
Stream size : 475 MiB (14%)
Language : English
Service kind : Complete Main
Default : Yes
Forced : No

 http://imagecurl.com/viewer.p...7783909095463343.png


 http://imagecurl.com/viewer.p...3759050716817552.png


 http://imagecurl.com/viewer.p...3862742.png[/center]
Category:Movies > WEB-HD
Lang:English  English
Total Size:3.30 GB
Info Hash:79649b5f00cddb943401b83a426462444abed8ed
Added By:Scene
Date Added:09-11-2018 07:06:35
Downloads:18

Ratings:Not Yet Rated (Log in to rate it)


Tracker:
http://tracker.trackerfix.com:80/announce


File List: 


Comments

No comments still posted

Top
Copyright 2018 DownloadHD -|- Page Generated In 0.321033 secs.
-|- RSS Feed -|- Feed Info