Login
Username:
Password:
[Signup]
[Recover Account]


Browse Torrents

Poll


You must be logged in to view polls



Latest Torrents
All.American.2018....
- [Size: 1.00 GB]

All.American.2018....
- [Size: 1.00 GB]

Jimmy.Fallon.2018....
- [Size: 1.18 GB]

SEAL.Team.S02E10.1...
- [Size: 3.39 GB]

Wondershare Video ...
- [Size: 109.36 MB]


Torrent Details For "Lawless.Range.2016.1080p.AMZN.WEBRip.DDP5.1.H264-SiGMA"

Lawless.Range.2016.1080p.AMZN.WEBRip.DDP5.1.H264-SiGMA

Download this torrent | Magnet Download
Health:
Seeds: 32
Leechers: 62
Completed: 210 
Last Checked: 09-11-2018 09:16:10
External Torrent
Update Stats



Images Host

Poster


iMDB
Title: Lawless Range
Year: 2016
Runtime: 85 minutes
Votes: 255
Rating: 5.2/10
Language: English
Director: Sean McGinly
Writing By: Adair Cole,Adair Cole,
Produced By: Beau Bridges,Adair Cole,Billy Mulligan,Heath Ryan,
Music: Alan Ari Lazar
Cast:
Patrick John Flueger as Sean Donnelly
Kris Kristofferson as Boss Flood
Stephen Monroe Taylor as John McKeever
Julianna Guill as Margaret Donnelly
Farrah Mackenzie as Emily Donnelly
Daniella Alonso as Claudia Donnelly
Austin Nichols as Tommy Donnelly
Dale Dickey as Coleen Donnelly
Justin Arnold as Rusty Webber
Kurt Caceres as Eddie Obregon


Watch-Free-HD     Download

Details
Name:Lawless.Range.2016.1080p.AMZN.WEBRip.DDP5.1.H264-SiGMA
Description:
Video
ID : 1
Format : AVC
Format/Info : Advanced Video Codec
Format profile : [email protected]
Format settings : CABAC / 4 Ref Frames
Format settings, CABAC : Yes
Format settings, ReFrames : 4 frames
Codec ID : V_MPEG4/ISO/AVC
Duration : 1 h 25 min
Bit rate mode : Constant
Bit rate : 9 514 kb/s
Nominal bit rate : 10 000 kb/s
Width : 1 920 pixels
Height : 800 pixels
Display aspect ratio : 2.40:1
Frame rate mode : Constant
Frame rate : 23.976 (24000/1001) FPS
Color space : YUV
Chroma subsampling : 4:2:0
Bit depth : 8 bits
Scan type : Progressive
Bits/(Pixel*Frame) : 0.258
Stream size : 5.65 GiB (97%)
Language : English
Default : Yes
Forced : No
Color range : Limited
Color primaries : BT.709
Transfer characteristics : BT.709
Matrix coefficients : BT.709

Audio
ID : 2
Format : E-AC-3
Format/Info : Enhanced AC-3
Commercial name : Dolby Digital Plus
Codec ID : A_EAC3
Duration : 1 h 25 min
Bit rate mode : Constant
Bit rate : 256 kb/s
Channel(s) : 6 channels
Channel layout : L R C LFE Ls Rs
Sampling rate : 48.0 kHz
Frame rate : 31.250 FPS (1536 SPF)
Compression mode : Lossy
Stream size : 156 MiB (3%)
Language : English
Service kind : Complete Main
Default : Yes
Forced : No

 http://imagecurl.com/viewer.p...0783504161754867.png

 http://imagecurl.com/viewer.p...8207168664568548.png

 http://imagecurl.com/viewer.p...1771520.png[/center]
Category:Movies > 1080P Bluray
Lang:English  English
Total Size:5.80 GB
Info Hash:44b74432b926ef96888700648c7b2051b4ae82ea
Added By:Scene
Date Added:09-11-2018 07:03:38
Downloads:44

Ratings:Not Yet Rated (Log in to rate it)


Tracker:
http://tracker.trackerfix.com:80/announce


File List: 


Comments

No comments still posted

Top
Copyright 2018 DownloadHD -|- Page Generated In 0.236095 secs.
-|- RSS Feed -|- Feed Info